&title=Like the Wind [Reborn]
&artist=sampling masters MEGA「パワードリフト」
&wholebpm=200
&demo_seek=3.6
&demo_len=16.4
&lv_1=3
&lv_2=6
&lv_3=9
&lv_4=11
&lv_5=14
&des_4=譜面-100号
&des_5=ニャイン
&inote_1=(200.0){1},,,
{2}1,1,
{1}1,
{1}8,
{1}7,
{2}8,8,
{1}1/8,
{2}2,2,
{1}2,
{1}3,
{1}4,
{2}3,3,
{2}2,2,
{1}1,
{1}8,
{4}7,7,,,
{4}6,6,,,
{4}7,7,,,
{4}8,8,,,
{2}1,1,
{2}2,2,
{2}1,1,{1},
{4}8,8,,,
{4}7,7,,,
{4}8,8,,,
{4}1,1,,,
{2}2,2,
{2}3,3,
{1}2h[8:7],
{2},2b,
{1}1-4[4:3],,,
{2},1/8,
{1}7-2[4:3],,,
{2}8,8b,
{1}1h[4:3],,
{1}2h[4:3],,
{2}1,1,
{1}1,
{2}8,8,
{2}8,8b,
{1}7,
{1}6,
{1}4/5,
{8},,,,,,,3-7[4:3],{1},,,,
{1}6-2[4:3],,,,
{2}2,2,
{2}3,3,
{2}2,2,
{2}1,1,
{2}8,8,
{2}7,7,
{1}8,
{1}1,
{1}2b,
{8},,,,,,,8h[1:1],{1},
{8},,,,,,,1h[1:1],{1},
{500},,,,,,,,,,,,,,,,,,,,,,,,,,,,,,,,,,,,,,,,,,,,,,,,,,,,,,,,,,,,,,,,,,,,,,,,,,,,,,,,,,,,,,,,,,,,,,,,,,,,,,,,,,,,,,,,,,,,,,,,,,,,,,,,,,,,,,,,,,,,,,,,,,,,,,,,,,,,,,,,,,,,,,,,,,,,,,,,,,,,,,,,,,,,,,,,,,,,,,,,,,,,,,,,,,,,,,,,,,,,,,,,,,,,,,,,,,,,,,,,,,,,,,,,,,,,,,,,,,,,,,,,,,,,,,,,,,,,,,,,,,,,,,,,,,,,,,,,,,,,,,,,,,,,,,,,,,,,,,,,,,,,,,,,,,,,,,,,,,,,,,,,,,,,,,,,,,,,,,,,,,,,,,,,,,,,,,,,,,,,,,,,,,,,,,,,,,,,,,,,,,,,,,,,,,,,,,,,,,,,,,,,,,,,,,,,,,,,,8h[1000:1001],,,,,,,,,,,,,,,,,,,,,,,,,,,,,,,,,,,,,,,,,,,,,,,,,,,,,,,,,,,,,,,{1},
{8},,,,,,,7h[1:1],{1},,
{1}8,
{1}8,
{1}1,
{1}1,
{2}8,7,
{2}6,5,
{2}4,3,
{2}2,1,
{8}8h[8:15],,,,,,,{1},,
E
&inote_2=(200.0){1},,,
{4}2,2,2,,
{4}3,3,3,,
{4}2,2,1,1,
{4}8,8,7,7,
{2}6h[4:1],5h[4:1],
{4}6,6,6b,,
{4}4,4,4,,
{4}5,5,5,,
{4}4,4,3,3,
{4}2,2,1,1,
{1}8-4[2:1],,
{1}1-5[2:1],,
{4}8,8,8,,
{4}1,1,1,,
{4}8,8,8,,
{4}1,1,2,2,
{4}3,3,3,,
{4}4,4,4,,
{4}3,3,2,2,
{1}1b,
{4}8,8,8,,
{4}7,7,7,,
{4}8,8,8,,
{4}1,1,2,2,
{4}1,1,1,,
{4}8,8,8,,
{1}7-2[2:1],,
{4}3,3,3,,
{4}4,4,4,,
{4}3,3,4,4,
{4}3,3,2,2,
{4}1,1,1,,
{4}8,8,8,,
{4}1,1,8,8,
{1}7h[4:3],
{1}7-3[2:1],
{4},,2,2b,
{1}1-4[2:1],
{4},,8,8b,
{1}7h[4:3],
{1}6h[4:3],
{1}7h[4:3],
{1}7b,
{4},2,,2,
{4},3,,3,
{1}4h[8:7],
{8},,,,,,,3h[1:1],{1},,
{1}2h[1:1],,
{1}3-7[2:1],,
{1}5-1[2:1],,
{4}8,8,8b,,
{4}1,1,1b,,
{4}7,7,7b,,
{4}2,2,2b,,
{4}7,7,3,3,
{4}5,5,4,4,
{4}5,5,3,3,
{4}7,7,1,1,
{1}8-5[2:1],
{8},,,,,,,1,
{8},1,,,,,,2,
{8},2,,,,,,1,
{8},1,,,,,,8,
{8},8,,,,,,7h[8:5],
{8},,,,,,,7,
{8},7,,,,,,8,
{8},8,,,,,,1,
{8},1,,,,,,,
{4}8,8,7,,
{4}8,8,1,,
{4}2,2,3,,
{4}2,2,1,1b,
{4}8,8,7,7,
{4}6,6,5,5,
{4}6,6,7,7,
{4}8,8,1,1,
{1}2h[2:3],
{8},,,,,,,2b,
E
&inote_3=(200.0){1},7h[4:3],
{4}1,1,1b,,
{4}8,8,7,7,
{4}8,8,1,1,
{4}2,2/3,2,1/2,
{4}2,3/2,2,1/2,
{4}2,1/8,7,8/1,
{4}1/2,1/2,2/3,1/2,
{4}8,8,7,7,
{4}6,6,5,5,
{4}4,4/3,4,4/5,
{4}4,4/3,4,4/5,
{8}3,3,,,2,2,,,
{4}3,4,5,6,
{4}7,7,8,8,
{4}1h[4:3],,,2b,
{4}8,7,6,4/5,
{4}6,7,8,1/2,
{4}8,7,6,8/1,
{4}2,3,4,1/8,
{4}7,7,6,6,
{4}7,7,8,8,
{4}1,1,2h[8:3],,
{4},,,1b,
{4}8,7,6,5,
{4}4,3,2,1,
{4}1,2,3,4,
{4}5,6,7,1/8,
{4}2,2/3,1,1/8,
{4}7,7/6,5,4/5,
{8}6h[2:1],,,,1h[8:3],,,2b,{1},
{4}8,7,8,7,
{4}1,2,1,2,
{4}8,1,8,1,
{4}8,7,8/1,,
{4}2,3,4,1/2,
{4}8,7,6,8/1,
{4}1h[4:1],2,1h[4:1],8,
{1}8h[4:3],
{4}1,2,3,4,
{4}5/6,7-4[4:1]/8-3[4:1],,,
{4},1,8,7,
{4}5/6,4-1[4:1]/5-8[4:1],,,
{4}1h[4:3],2,3,2,
{4}8h[4:3],7,6,5,
{4}4h[4:3],3,
{139}2,,,,,,,,,,,,,,,,,,,,,,,,,,,,,,,,,,,
{278}1,,,,,,,,,,,,,,,,,,,,,,,,,,,,,,,,,,,,,,,,,,,,,,,,,,,,,,,,,,,,,,,,,,,,,
{1}8h[4:3],
{4}1,1/2,,2/3,
{4},1/2,,1/8,
{8}7h[4:1],,6,,1/8,,,1b/2b,{1},
{8}2,,,1,8,,1,,
{8}6,,,5,4,,5,,
{8}1,,,8,1,,8,,
{8}3,,,4,4,,5,,
{8}7,,,6,6,,5,,
{8}3,,,2,2,,3,,
{8}7,,,8,1,,8/1,,
{4}3,4,5,6,
{4}1,1/2b,1,1/8b,
{4}2,3/4b,2,1/8b,
{4}8,7b/8,8,1b/8,
{4}7,5b/6,7,8/1b,
{4}1,1b/2,8,8b/7,
{4}3,4/3b,6,6b/5,
{2}4,3,
{2}2/8,7/1,
{4}8,8,1,1,
{8}2h[4:3],,,,,,3,3,
{8},2/3,,,,,,8,
{8},8h[8:3],,,7,,,8/1,
{8},8/1,,,,,,2,
{8},2h[8:3],,,3,,,1/2,
{8},,,,,,,8,
{8},8h[8:3],,,7,,,1/8,
{8},2/1,,,,,,1,
{8},1h[8:3],,,8,,,6/7,
{4},8,8,1,
{4}1,2,2,3,
{4},2,2,1,
{4}1/8,7/8,1/8,7/8,
{4}1,2,3,4,
{4}5,6,7,8,
{4}8,7,6,5,
{4}4,3,2,1,
{8}8h[8:7],,,,,,,1,
{8},1h[8:3],,,2,,,8/1,
E
&inote_4=(200.0){1},4-8[2:1],
{4}1,1,1h[2:1],,
{4}7,7/8,1,1/2,
{4}3,3/4,5/6,4/3,
{4}5,5/4,5,5/4,
{8}5,,5/4,,6,7,8,,
{8}1,1,2/1,,8,8,8/7,,
{4}2/1,7/8,2/1,8/1,
{4}2,1/2,8,8/7,
{4}6,6/5,4/3,5/6,
{4}4,4/5,4,4/5,
{8}4,,4/5,,3,2,1,,
{8}8-4[4:1],8,,,1-5[4:1],1,,,
{4}8,8/7,2/1,8/7,
{4}1,8/1,1,1/8,
{1}2-7[2:1]/3-6[2:1],
{8}5,,5/6,,5,4,5,7,
{8},5/6,,6,,6/5,,6,
{8}4,,4/3,,4,5,4,2,
{8},2-7[8:3],,,,,,,
{8}4,,5/4,,4,3,4,7,
{8},6/5,,2,,3/4,,8,
{4}1h[2:1],,8h[1:1],1^4[2:1],
{8},,,,,,,5h[8:1]/6h[8:1],
{4},5/4,4/3,4/5,
{4}3/2,4/5,6/5,4/5,
{4}7/6,4/5,4/3,4/5,
{4}3/2,4/3,7/6,5/6,
{4}1/2,6/5,1/2,6/5,
{4}7/8,4/3,7/8,4/3,
{8}8h[4:1]/1h[4:1],,,,8/7h[1:1],,3^8[2:1],3,{1},
{8}1,8,1,8,1,8,1,8,
{8}2,8,2,8,1,7,1,7,
{8}8,7,8,7,2,1,2,1,
{8}2,2,2,6,1-5[4:1],,,,
{8}3,5,3,5,6,4,6,4,
{8}3,4,3,4,6,5,6,5,
{8}3,4,6,5,3,4,6,5,
{8}3,7h[8:5]/3^6[8:3],,,,,,,
{4}2/1,5/6,7/8,3/4,
{8}1,8,1,8,1b,,,,
{4}7/8,3/4,2/1,6/5,
{8}8,1,,8,1b,,,,
{8}8/1,,1/8,,2/1,1/2,2/1,,
{8}8/1,,1/8,,8/7,7/8,8/7,,
{8}2,8,1,7,2,8,1,7,
{1}4-1[2:1]/5-8[2:1],
{8},1,,1,,8,,8,
{8},1/7,,2/8,,1/7,,2/8,
{8}3,3h[8:5],,,6h[4:1],,,3-8[8:3]/6-1[8:3],{1},
{8}8h[8:3],,,7,8/7,,,,
{8}1h[8:3],,,2,1/2,,,,
{8}7h[8:3],,,8,1/8,,,,
{8}2h[8:3],,,1,1/8,,,,
{8}6h[8:3],,,4,4/3,,,,
{8}3h[8:3],,,5,5/6,,,,
{8}5h[8:3],,,6,6/4,,,,
{8}4h[8:3],,,3,3/5,,,,
{4}7/8,8b/1b,7/8,8b/1b,
{4}2/1,8b/1b,2/1,8b/1b,
{4}7/6,8b/1b,7/6,8b/1b,
{4}3/2,8b/1b,3/2,1b/8b,
{4}5/6,8b/1b,6/5,1b/8b,
{4}3/4,8b/1b,4/3,8b/1b,
{2}1,1,
{2}8h[2:1],1b,
{8}8,8/7,,7/6,,6/5,,5/4,
{8},3/4,,3/2,,1/2,,1/8,
{8},8,7,,8,1,2,,
{8}8,7,6,,8,1,2,3,
{8},1,2,,1,8,7,,
{8}1,2,3,,1,8,7,6,
{8},8,7,,8,1,2,3,
{8},8,7,6,7,8,1,2,
{8},1,2,,1,8,7,6,
{8},1,2,3,2,1,8,7,
{8},8,1,2,8,7,6,8,
{8}1,2,8,7,6,8,1,2,
{8},1,8,7,1,2,3,1,
{8}8,7,1,2,3,1,8,7,
{8},7,2,1,6,7,8,4,
{8}3,2,5,6,7,5,4,3,
{8},2,7,8,3,2,1,5,
{8}6,7,4,3,2,4,5,6,
{8}1h[8:15],,,,,,,8,
{8},8,,,8h[4:1],,,8-4[8:1],,,,
E
&inote_5=(200.0){1},
{16}1,8,1,8,1,8,1,8,1,8,1,8,1,8,1,8,
{641}1,,,,,,,,,,,,,,,,,,,,
{639}2,,,,,,,,,,,,,,,,,,,,3,,,,,,,,,,,,,,,,,,,,
{641}4,,,,,,,,,,,,,,,,,,,,5,,,,,,,,,,,,,,,,,,,,
{639}6,,,,,,,,,,,,,,,,,,,,7,,,,,,,,,,,,,,,,,,,,
{641}8,,,,,,,,,,,,,,,,,,,,1,,,,,,,,,,,,,,,,,,,,
{639}2,,,,,,,,,,,,,,,,,,,,3,,,,,,,,,,,,,,,,,,,,
{641}4,,,,,,,,,,,,,,,,,,,,5,,,,,,,,,,,,,,,,,,,,
{639}6,,,,,,,,,,,,,,,,,,,,7,,,,,,,,,,,,,,,,,,,,
{641}8,,,,,,,,,,,,,,,,,,,,
{4}1b,,
{16}1/8,,,,8/7,,,,1/2,,4/3h[8:3],5,6,7,8,1,
{16}2-6[8:1],,,4,,,7,,8-4[8:1],,,,5,,3,,
{8},1/2,,7/6,,4/3,,5/6,
{8},2/3,,8/7,1,2,,1/8,
{16}7/6,,5,4,5,,,,7/6,,8,1,8,,,,
{4}2/1,6/7,4/3,6/5,
{16}1/8,,,,8/7,,,,1/2,,4/3h[8:3],5,6,7,8,1,
{16}2-6[8:1],,,4,,,7,,8-4[8:1],,,,5,,3,,
{8},1/2,,7/6,,4/3,,5/6,
{8},2/3,,8/7,,1,3,5h[8:3],
{8},6,6,,4,2,1-5[8:1],8,
{8}7,6-2[8:1],5,4,,1^4[8:1],8,1^6[8:1],
{8},2,1,8,7,6,5,4,
{8}3,2,1,8,7,6,5,4,
{8}2/3,,4/5,,2/3,1,8,7/8,
{8},2/1,3,5/4,6,8/7,1,3/2,
{8}1/8,,4/7,,2/3,4,5,6/7-4[8:1],
{8},5,3,1-5[10000:1229],,2,6,4b,
{8}3/5,,4/6,,2/3,1,8,6/7,
{8},1/2,8,7/8,1,2/1,8,7/6,
{8}8-4[8:1],,2-5[8:1],,4-8[8:1],,1b,1b,
{16},,8,7,6,5,4,3,2,,2b,,,,,,
{8}1-5[16:1],2,,6,7-3[16:1],6,,8,
{8}1-5[16:1],3,,7,8-4[16:1],1,,3,
{8}4-1[16:1],3,5,6,7-3[16:1],8,6,5-1[16:1],
{8},8-5[16:1],8,1-4[16:1],,8b,,,
{8}7-3[16:1],6,5,4,2-6[16:1],1,8,7,
{8}5-1[16:1],4,3,2,8-4[16:1],7,6,5,
{8}3-8[8:1]/4-7[8:1],4/3,,,1/8,1-4[8:3]/8-5[8:3],,,{1},
{16}3,4,3,,2,1,2,,1,8,1,,2,,3,,
{16}4,5,4,,5,6,5,,7,8,7,,6,,5,,
{16}6,7,8,1,2,,2,,1,8,7,6,5,,5,,
{16}8,1,2,3,4,5,6,7,8,,2,,6b/3b,,,,
{8}8/1,2,1/8,7,8,1,2,3,
{8}5/4,6,4/5,3,4,5,6,7,
{8}1/8,2,3,4,6/5,4,3,2,
{4}1h[4:3],,,8b,
{8}3/6h[4:1],,4,5,6/3h[4:1],,5,4,
{8}3,2,1,8,7-3[8:1],,1b,,
{8},3b,4b,3b,2b,,1b,1b,
{8}8b,8b,,7b,7b,,8b/1b,,
{4}2-6[2:1],3,8,4,
{4}5-1[2:1],6,3,7,
{2}8-5[2:1],1-4[2:1],
{1}8h[4:3],
{8},8/1,,3/4,,2/1,,6/5,
{8},8/7,,5/6,,3/4,,1/2,
{8}8h[4:1],,7^2[8:1],,,,,7b/2b,
{8},,,,,,,3h[8:3],
{8},,5,,7,,1/4,8h[8:3],
{8},5,2,,4,3,,5h[8:5],
{8},,,,,7,8,1,
{8},,8,,,7,,1,
{8}1,,8,6,5,4,3,2h[8:3],
{8},,1,1,,2,,3h[8:3],
{8}4,,,4,,,6,,
{8},,8,,,8,,,
{4}1/2-5[8:1],1b,8/7-4[8:1],8b,
{4}1/2-5[8:1],1b,8/7-4[8:1],8b,
{4}1/2-5[8:1],1b,8/7-4[8:1],8b,
{4}1/2-5[8:1],1b,8/7-4[8:1],8b,
{8}2,4,3,5,2,1,8,7,
{8}8,2,1,3,8,7,6,5,
{8}6-2[8:1],6,7-3[8:1],7,8-4[8:1],8,1-5[8:1],1,
{8}2-6[8:1],2,3-7[8:1],3,4-8[8:1],4,5-1[8:1],,
{4}1-4[8:1],4-7[8:1],7-2[8:1],2-5[8:1],
{8}5-8[8:1],,8-4[8:1],,4-1[8:1],,,8b,
{8},8b,,,2h[8:3],,,1b,
{8},1b,,,8h[4:1],,,7b,
{8},7b,,,8h[8:3],,,1b,
{8},1b,,,2h[4:1],,,3-8[8:1],
{8},1h[8:5],,,,,,8b,
{8},8b,,7,7b,,,6/5-1[8:1],
{8},7h[8:5],,,,,,1b,
{8},1b,,2,2b,,,,
{8}2/7,8,4,6,2,1,8,1/8,
{16}1/2,,3,,5,,4,,7,,2,1,2,,8,1,
{8}8,3,7,1,5,3,8,1,
{4}2b/3b,4b/8b,6b/2b,7b/8b,
{8}1/5-1[8:1],2,3,4,5/1^4[8:1],6,7,8,
{16}1/5-1[8:1],,2,,3,,4,,5^2[8:1],,7,6,5,,4,5,
{8}6^3[8:1],7,8,1,2/6-2[8:1],3,4,5,
{8}7-4[8:1],7,2-6[8:1],2,8-4[8:1],8,1,1,
{8}8h[4:3],,,,,,,7/2,
{8},2/6,,8,5/1,,8/4,2/6,
E
